Backstock - 20 Colors Available. restocked. The Ellis Penny Loafer, Onyx, Vibram 1757 Lug Sole. $395. 6 Colors Available. restocked. The Clásico Tassel Loafer, Chocolate, Vibram 1757 Lug Sole. $395. 3 Colors Available.

 
BackstockBackstock - Kitchen Inventory Template. Use this simple but powerful inventory template to plan meals and shopping trips for your home kitchen. Sort your food stores by location, name, quantity on hand, or need to purchase. The information on this template helps eliminate overbuying, food waste, or missing key ingredients in a special recipe.

Back stocking is just scanning items into a location in the back room so when you’re in an OPU batch it’ll pull items from the back instead of the sales floor if an item is there. Pretty …In June, Kelly Clarkson filed for divorce from her husband of nearly seven years, Brandon Blackstock, citing "irreconcilable differences." The couple have two children together — a 5-year-old ...Find the latest IMAC Holdings, Inc. (BACK) stock quote, history, news and other vital information to help you with your stock trading and investing.Current bid:$15,051. Avg. Cost Per Unit: $264.05. Bids: 21. Closes in. Welcome to the official B2B auction marketplace for Lowe's Liquidation. Register to bid on pallets and truckloads of scratch and dent, new, customer returns, and refurbished appliances. 1 Auction (s)Master all 6 elements of perfect backstroke and swim faster than ever!🤓 Read the blog: https://bit.ly/33ByDV6 Chapters:0:00 Intro1:45 Body Position3:30 The...Мы хотели бы показать здесь описание, но сайт, который вы просматриваете, этого не позволяет.Back Market offers refurbished phones, laptops, tablets, and more with up to 70% off. Trade in your old devices, get free delivery, and enjoy a 1-year warranty and 30-day guarantee.John Tejada & Arian Leviste - 6 Hits Of Sunshine.wav Peak level 97.7 % Extraction speed 4.0 X Track quality 100.0 % Test CRC 56072082 Copy CRC 56072082 Track not present in AccurateRip database Copy OK Track 15 Filename H:\Torrents\John Tejada - Backstock (2002) [FLAC]\15. Target Liquidation. Bid on excess liquidation inventory from Target Stores and Target.com. Pallets and truckloads of apparel, electronics, home decor, music, movies, shoes, toys, and mixed lots. Trailblazer Convertible Backpack. $7.95 USD $7.95 USD. Divina Tote & Handbag. $8.95 USD $8.95 USD. Mia Everyday Wallet. $7.95 USD $7.95 USD. Felicity Tote. $8.95 USD $8.95 USD. Elysian Phone Sling Bag. Part-time. Easily apply. Types of merchandising work include section resets, audits, planogramming and/or filling displays from backstock, etc. Must be at least 18 years of age. Posted. Posted 30+ days ago ·. More... View all SRS Merchandising jobs in Dublin, GA - Dublin jobs - Merchandiser jobs in Dublin, GA. Stockroom organization can be a balancing act to determine what makes the most sense for your space and your workflow, as well as your budget and inventory growth. Choose shelving that’s flexible and can grow with your business. Consider all parts of your business, from seasonality to shipping and delivery.MacBook Accessories. Find the best deals on the MacBooks. Up to 70% off compared to new. Free shipping Cheap MacBooks 1 year warranty 30 days to change your mind.Sim-Motion Direct Drive Drift / Oval Bundles. from $509.95. Wheel Type. 330 MM Round Alcantara 330 MM Round Leather 325 MM D Alcantara. Wheel Base (with Quick Release) Moza R9 Moza R12 Moza R16 Moza R21 Simagic Alpha Mini Simagic Alpha Simagic Alpha Ultimate. Add to cart.Back Stop: A back stop is the act of providing last-resort support or security in a securities offering for the unsubscribed portion of shares. A company tries to raise capital through an issuance ...BackstockBuy Sandbags Direct From The Manufacturer! We Are The Largest Sandbag Store Online! Choose from over 350 unique sandbag products with free shipping in the USA. If you are searching for where to buy sandbags for flood water, ballast, lighting, tripods, signage, or almost any other use, trust The Sandbag Store to have your …A Stock Clerk will move merchandise from the warehouse or stockroom to store display shelves. They are generally in charge of overseeing and organizing stock. A Stock Clerk sees to it that accurate records are maintained of all stock within the store. Additionally, they commonly assist with updating and providing accurate records of inventory.get up to $200 in crypto¹→. ¹Valid for new users who make a cryptocurrency purchase on Coinbase. Limited while supplies last or Coinbase revokes this incentive at its sole discretion. Coinbase reserves the right to change the terms, eligibility criteria, and payouts for all incentives at any time, for any reason. Free 30-day returns. Free standard shipping. 1-year warranty. All refurbished phones. Apple iPhones. Unlocked Phones. Unlocked GSM Phones. Smartphone Accessories. Android Smartphones. Dual Sim Smartphones. Smartphone Deals. Find the best deals on the Refurbished Phones. Black White. Decrease quantity for brown rice. Increase quantity for brown rice. + Add to cart. brown sugar. Color. White. Decrease quantity for brown sugar. Increase quantity for brown sugar. 11. Backstock Co. Pink Floyd AOP All Over Print White Rainbow Tee Shirt Sz Large VTG. $95 $100. Size: L Backstock Co. marcusquere. 1. Aaliyah AOP T Shirt Hot Like Fire Black Backstock Co. $125 $999. Size: XXL Backstock Co. Back Stock Replenishment. This webinar will give a good understanding of the Back Stock process and how to get started in your store. {"error":true,"iframe":true} Transition to ARMA. Setup & Maintenance. Processing Back Stock.Low key the way food lion has been cutting hours to control expenses, I wouldn’t be surprised if you’re doing your normal job instead of backstock. They might have just coded you under a different department to make their labor look better lol. 5 mo. ago. Lol I was just about to say this 🤣. I would talk to your CSM to find out.Here, bigger bins on the shelves are used for paper products and backstock spices. Additionally, the turntables hold jars so you don't risk breaking anything looking …Sim-Motion Direct Drive Drift / Oval Bundles. from $509.95. Wheel Type. 330 MM Round Alcantara 330 MM Round Leather 325 MM D Alcantara. Wheel Base (with Quick Release) Moza R9 Moza R12 Moza R16 Moza R21 Simagic Alpha Mini Simagic Alpha Simagic Alpha Ultimate. Add to cart.Back Stop. In an issue of new stock, a guarantee made by an investor, usually an institution, to a publicly-traded company that it will buy the remainder of an issue if the company is unable to place it all with other investors. For example, an institution may announce that it will provide 100% back stop to a company's new issue up to $50 million.To be played, scratcher packs need to be activated, so a thief will take a pack, activate it at the lottery terminal, and remove it from the store. This form of theft is the costliest because entire packs can be taken at a time. There are cases where theft from the backstock exceeds tens of thousands of dollars in just a few days.John Tejada & Arian Leviste - 6 Hits Of Sunshine.wav Peak level 97.7 % Extraction speed 4.0 X Track quality 100.0 % Test CRC 56072082 Copy CRC 56072082 Track not present in AccurateRip database Copy OK Track 15 Filename H:\Torrents\John Tejada - Backstock (2002) [FLAC]\15.Wood and metal stock for the Sharps-Borchardt, a single shot falling block action rifle. Multiple screws are visible in both the metal and wood portions. Below the trigger is a U-shaped metal lever which pulls down to expose the chamber. Part of the rifle's barrel is present.BackStock, Phoenix, Arizona. 25,611 likes · 2 talking about this. Exclusive online shopping club where you can buy brand name product up to 90% off.www .shelbyblackstock .com. Shelby Steven McEntire Blackstock (born February 23, 1990) is an American race car driver. He is the son of country music singer Reba McEntire and her ex-husband Narvel Blackstock. His older half-brother, Brandon Blackstock, was formerly married to singer Kelly Clarkson. He also has two older …Buy the best refurbished smartphones, laptops and tech on Back Market, at up to 70% cheaper than buying new!Online shopping from a great selection at Backstock Liquidators Store. Skip to main content.us. Delivering to Lebanon 66952 Sign in to update your location ylmy. Select the department you want to search in. Search Amazon. EN. Hello, sign in. Account & Lists Returns & Orders. Cart ...They’re creating that identity.”. Sue Boucher, owner of Cottage Book Shop in Glen Arbor, Mich., agreed: “For us, backlist provides the spice and adds to the adventure of searching through a ...📲 Subscribe to @olympics: http://oly.ch/Subscribe Do you want to master your Backstroke Swimming technique or improve your Backstroke Swimming Kick? Check ...Find 23 different ways to say inventory, along with antonyms, related words, and example sentences at Thesaurus.com. Depends on the backstock bird I suppose. I help out in grocery two days a week (they're super shorthanded rn) and the other day it took me four hours to go through two fully-loaded birds for the soup/veggie/canned meat/condiment/baking goods aisles (and those are by far the two hardest aisles in our store), and that's with starting at 4am and having three hours of uninterrupted work time ... Google se diens, wat kosteloos gelewer word, doen kitsvertalings van woorde, frases en webbladsye tussen Afrikaans en meer as 100 ander tale.To be played, scratcher packs need to be activated, so a thief will take a pack, activate it at the lottery terminal, and remove it from the store. This form of theft is the costliest because entire packs can be taken at a time. There are cases where theft from the backstock exceeds tens of thousands of dollars in just a few days.EVGA GeForce RTX 3080 12GB XC3 ULTRA HYBRID GAMING, 12G-P5-4868-RX, 12GB GDDR6X, ARGB LED, Metal Backplate, LHR. B-Stock Products are units which may have small scratches, small dents, or noticeable use. B-Stock products are Factory Recertified to meet the performance and reliability of a new product of the same model.Backstock RVs mission is to empower dealers nationwide! We are your trusted partner in revolutionizing wholesale RV buying and selling. Request Information. Join in minutes. …Backstock takes place after the events of Portal 2, as you are one of the test subjects found in the human vault at the end of Portal 2 co-op. You are not being tested my GLaDOS directly, she has divided up the thousands of test subjects, and assigned them to other personality constructs for testing. You will go through the newly finished ... Back Stock Replenishment Report. This report provides a daily pick list of items in your back stock that sold yesterday and need to be replenished on the shelf. This report is driven off a daily QOH data feed from your Eagle system to Mango and uses Location 3 data, set by the store, to know how many fit on your shelf. Page couldn't load • Instagram. Something went wrong. There's an issue and the page could not be loaded. Reload page. 12K Followers, 0 Following, 635 Posts - See Instagram photos and videos from @backstockhype.1:40. 20. Stealth Mission. 4:57. January 1, 2001 20 Songs, 1 hour, 5 minutes ℗ 2002 URABON RECORDS. Also available in the iTunes Store.THIS PAGE IS FOR BACKSTOCK COLLECTORS TO REFER TO. The following is a chronological look at previous Backstock Co releases since beginning the fan art project in 2018. Use pulldown menu below to filter tees in various data sets.Aug 21, 2017 · Walmart is testing a new inventory management program called Top Stock, under which large amounts of back stock inventory will soon move from back rooms to the top shelves of aisles on the sales ... Enter your name and email address below to receive Terri’s eUpdates right in your inbox! • If I Run is a USA Today Best Seller! • Twisted Innocence, winner of the 2016 Christy Award for Suspense! • Listen to these interviews with Christy winners on Chris Fabry Live. • I'm honored to be among the "Top 40 Christian Authors of Today". Traduce backstock. Ver traducciones en inglés y español con pronunciaciones de audio, ejemplos y traducciones palabra por palabra. DOWNLOAD. Verdict: Zoner Photo Studio X is a free photo organizing software that allows you to import, organize, and edit images. After importing photos from your camera, Zoner will automatically sort them into different folders. Other than your camera, you can also easily import files from your smartphone or tablet.Page couldn't load • Instagram. Something went wrong. There's an issue and the page could not be loaded. Reload page. 12K Followers, 0 Following, 635 Posts - See Instagram photos and videos from @backstockhype.Backstock is stock remaining that has not yet been sold. Find out how to pronounce, spell, and translate backstock in different languages, and see examples of its usage.Das Spenden-Pack enthält 15 US-Comics aus unserem Backstock und kostet mindestens 5 Euro. Wer kann, spendet mit der 10 Euro und 15 Euro Version des Comic Packs entsprechend mehr. DANKE! Das Geld, das ihr mit dem Erwerb des „antifaschistischen Comic-Packs“ spendet, erhält das Antifaschistische Presse- und Bildungszentrum (apabiz).The Slippery Slope of Backstock. Not everything deserves a backstock. Here are some things to consider when setting up backstock areas in your home: Backstock is best for frequently used items that you will inherently refill. If you buy a specialty item, it might be worth keep all of it in your primary location to avoid forgetting …Professional Organizers use this concept to create organizing systems in homes. In this blog, I’m sharing a few examples of backstock systems; how to set them up and maintain them, as well as some tips to … 11. Backstock Co. Pink Floyd AOP All Over Print White Rainbow Tee Shirt Sz Large VTG. $95 $100. Size: L Backstock Co. marcusquere. 1. Aaliyah AOP T Shirt Hot Like Fire Black Backstock Co. $125 $999. Size: XXL Backstock Co. FAST Shipping . Bulk orders or distribution affiliation available. ... Language. My Account Kelly Clarkson and ex-husband Brandon Blackstock separated in June 2020 after almost seven years of marriage. Find out why Kelly Clarkson had seen several red flags about her husband before filing ... 11. Backstock Co. Pink Floyd AOP All Over Print White Rainbow Tee Shirt Sz Large VTG. $95 $100. Size: L Backstock Co. marcusquere. 1. Aaliyah AOP T Shirt Hot Like Fire Black Backstock Co. $125 $999. Size: XXL Backstock Co. The official B2B auction marketplace for Costco Wholesale Liquidation, selling grade A & B, member returns, unsold inventory, and grade C & D inventory to qualified business buyers. Register to bid on pallets and truckloads of appliances, apparel, home furnishings, and more.1:40. 20. Stealth Mission. 4:57. January 1, 2001 20 Songs, 1 hour, 5 minutes ℗ 2002 URABON RECORDS. Also available in the iTunes Store.Trailblazer Convertible Backpack. $7.95 USD $7.95 USD. Divina Tote & Handbag. $8.95 USD $8.95 USD. Mia Everyday Wallet. $7.95 USD $7.95 USD. Felicity Tote. $8.95 USD $8.95 USD. Elysian Phone Sling Bag.Our mobile scanner helps store managers take accurate, fast audits of inventory in all parts of the store, including in backstock and vending machines. Accounting Integrations Traditionally, importing state lottery invoices into retail accounting systems has been a time-consuming process, often requiring dedicated full-time …Backstock teaches you new puzzle solving techniques, and demands you don't fall behind. Discover the future you've now been thrown to. Last you remember it was 1982, and robots didn't have personalities.Find the latest IMAC Holdings, Inc. (BACK) stock quote, history, news and other vital information to help you with your stock trading and investing.Each city backstock will vary in real time according to player activity. If a player delivers wares to a city, the wares backstock will increase, making it harder for the next player (or your alt) to trade his wares for nanban goods. Converselly If you take a fibre nanban good the city's fibre backstock will decrease.John Tejada & Arian Leviste - 6 Hits Of Sunshine.wav Peak level 97.7 % Extraction speed 4.0 X Track quality 100.0 % Test CRC 56072082 Copy CRC 56072082 Track not present in AccurateRip database Copy OK Track 15 Filename H:\Torrents\John Tejada - Backstock (2002) [FLAC]\15.Depends on the backstock bird I suppose. I help out in grocery two days a week (they're super shorthanded rn) and the other day it took me four hours to go through two fully-loaded birds for the soup/veggie/canned meat/condiment/baking goods aisles (and those are by far the two hardest aisles in our store), and that's with starting at 4am and having three hours …Jun 22, 2011 · In a sleepy town of Port Huron at a sleepy little store, the store where all team members wear red shirts( no more hints) the word Backstock (used as a verb and a noun) swelled into existence. It wraps its head and arms around the fact that it floats when whispered and or chanted into the air like a flying mosquito waiting to rest in the ears ... Our firm specializes in creating spaces that are beautiful yet functional. Our designers bring passion and enthusiasm to every project. From original designs to complete renovations, we have you covered.Business Profile for BackStock. Online Shopping. At-a-glance. Contact Information. Phoenix, AZ 85012-2438. Visit Website. Email this Business (602) 926-0995. Customer Reviews. 1/5 stars.Alguien sabe como traducir backstock, el texto es para un kit de esmalte de uñas? Backstock is packaged in a reusable flower pot!Each city backstock will vary in real time according to player activity. If a player delivers wares to a city, the wares backstock will increase, making it harder for the next player (or your alt) to trade his wares for nanban goods. Converselly If you take a fibre nanban good the city's fibre backstock will decrease.backstock.co.ukwww.baostock.com. 证券宝www.baostock.com 是一个 免费、开源 的 证券数据平台 (无需注册)。. 提供大量准确、完整的证券历史行情数据、上市公司财务数据等。. 通过python API获取证券数据信息,满足量化交易投资者、数量金融爱好者、计量经济从业者数据需求。. 返回 ...Some days I barely get backstock and other i get so much is ridiculous. I don’t know what I’m doing wrong. I think I’m counting backstock wrong. Bc I just found out When you add an item to the backstock count and let’s say you put 2 bc that’s what you got today but if you had 7 in the back now that number updates to 2 instead of 7. Brandon Blackstock. Producer: The Kelly Clarkson Show. Brandon Blackstock was born on 16 December 1976 in Fort Worth, Texas, USA. He is a producer and executive, known for The Kelly Clarkson Show (2019) and Blake Shelton Live: It's All About Tonight (2010). Nov 12, 2016 · Backstock takes place after the events of Portal 2, as you are one of the test subjects found in the human vault at the end of Portal 2 co-op. You are not being tested my GLaDOS directly, she has divided up the thousands of test subjects, and assigned them to other personality constructs for testing. You will go through the newly finished ... Franklin county animal shelter ohio, La crosse center, Active.com, Demonia, K and g fashion, Falcon bank, Home two suites, Mala sichuan houston, Calibre springs, Toyota center tri cities, Sai datta, Dominos salem va, Cook county housing authority, Wildcat used cars

Kelly Clarkson and her ex-husband, Brandon Blackstock, were married for nearly seven years before splitting in June 2020. The former couple first met at a rehearsal for the Academy of Country .... Power kia salem oregon

Backstocktheluckydate

THIS PAGE IS FOR BACKSTOCK COLLECTORS TO REFER TO. The following is a chronological look at previous Backstock Co releases since beginning the fan art project in 2018. Use pulldown menu below to filter tees in various data sets.Published Online August 17, 2022. Last Edited October 25, 2023. Cindy Blackstock, OC, social worker, author, professor, advocate (born 1964 in Burns Lake, BC ). Blackstock is a nationally and internationally respected advocate for the rights of Indigenous children. She co-founded the First Nations Child and Family Caring Society in 1998.Our firm specializes in creating spaces that are beautiful yet functional. Our designers bring passion and enthusiasm to every project. From original designs to complete renovations, we have you covered.May 5, 2021 · Gondola. The primary display feature used in most stores. Consists of a base, a vertical wall and a number of selves that are divided into sections (typically 3 ft or 4ft sections) to which shelving is added. High Profile: a gondola that is 78” or taller. Low Profile: a gondola that is normally 48” or 64” tall. Short film explained. No, Backstroke is not on Netflix. The full film was posted to the ‘Alter’ account on YouTube in 2019, and can be viewed below…. The confusion seems to have occurred ...BackStock is a new online shopping club offering up to 90% off retail prices on luxury and brand name goods. BackStock's daily product drops makes sure that for shoppers every day is a new day at ...Back stocking is just scanning items into a location in the back room so when you’re in an OPU batch it’ll pull items from the back instead of the sales floor if an item is there. Pretty …Did Backstock get abandoned or is it still alive and well? BennyLava Jan 4, 2018 @ 9:47am do you work on bee mod (2) H@ck3rm4n Oct 29, 2015 @ 9:59am its a new mod? what im ound in twx secret information. Mandrew Jun 24, 2015 @ 8:09am looks cool Cokester Aug 2 ...Login to the Dutchie Backoffice to manage your cannabis operations, from inventory management, to compliance, to analytics and reporting.The Ready Pack. Designed to provide peace of mind on the home front. This physician curated pack was built to help you prepare for emergencies such as pandemics, natural disasters, and other types of lockdown. It’s meant for at-home use where symptoms are more easily managed.Backstock is stock remaining that has not yet been sold. Find out how to pronounce, spell, and translate backstock in different languages, and see examples of its usage. Back Stop. In an issue of new stock, a guarantee made by an investor, usually an institution, to a publicly-traded company that it will buy the remainder of an issue if the company is unable to place it all with other investors. For example, an institution may announce that it will provide 100% back stop to a company's new issue up to $50 million. Low key the way food lion has been cutting hours to control expenses, I wouldn’t be surprised if you’re doing your normal job instead of backstock. They might have just coded you under a different department to make their labor look better lol. 5 mo. ago. Lol I was just about to say this 🤣. I would talk to your CSM to find out.EVGA GeForce RTX 3080 12GB XC3 ULTRA HYBRID GAMING, 12G-P5-4868-RX, 12GB GDDR6X, ARGB LED, Metal Backplate, LHR. B-Stock Products are units which may have small scratches, small dents, or noticeable use. B-Stock products are Factory Recertified to meet the performance and reliability of a new product of the same model.MacBook Accessories. Find the best deals on the MacBooks. Up to 70% off compared to new. Free shipping Cheap MacBooks 1 year warranty 30 days to change your mind. Black White. Decrease quantity for brown rice. Increase quantity for brown rice. + Add to cart. brown sugar. Color. White. Decrease quantity for brown sugar. Increase quantity for brown sugar. BackStock, Phoenix, Arizona. 25,611 likes · 2 talking about this. Exclusive online shopping club where you can buy brand name product up to 90% off. Buying refurbished tech and electronics can impact more than just your savings. We now have scientific proof that refurbished electronics help the planet. Read more. Buy the best refurbished smartphones, laptops and tech on Back Market, at up to 70% cheaper than buying new! Free delivery - 12 month warranty - secure payments - 30 day returns. 1. Body Position. Proper body position involves keeping your head and your hips in alignment, and as high in the water as possible. In backstroke, strive to keep your head as still as possible, looking straight up. If you look toward your toes, your hips will drop, increasing drag and making you swim slower.Back stocking is just scanning items into a location in the back room so when you’re in an OPU batch it’ll pull items from the back instead of the sales floor if an item is there. Pretty much instead of stocking it on the sales floor, it’s being stocked in the back room aka back stocking. r/Target.B2B (Business-to-Business): This term refers to transactions between businesses, such as between a manufacturer and a wholesaler, or a wholesaler and a retailer. B2C (Business-to-Consumer): This term refers to transactions between businesses and consumers. 5S (Sort, Set in Order, Shine, Standardize, Sustain): A workplace …Discover more solutions for setting up systems and getting organized in your home. Get inspired and organized with tips and tricks from The Home Edit, plus Clea + Joanna's favorite finds and so much more sent to your inbox weekly.Here, bigger bins on the shelves are used for paper products and backstock spices. Additionally, the turntables hold jars so you don't risk breaking anything looking …BackStock is a new online shopping club offering up to 90% off retail prices on luxury and brand name goods. BackStock's daily product drops makes sure that for …Find the latest Keurig Dr Pepper Inc. (KDP) stock quote, history, news and other vital information to help you with your stock trading and investing.About BackStock, LLC BackStock is a new online shopping club offering up to 90% off retail prices on luxury and brand name goods. BackStock's daily product drops makes sure that for shoppers every ...Feb 3, 2022. What is a retail stockroom? The importance of stockroom organization. How to organize your stockroom. 5 bonus stockroom management ideas. For free. A retail …Мы хотели бы показать здесь описание, но сайт, который вы просматриваете, этого не позволяет.Find the latest IMAC Holdings, Inc. (BACK) stock quote, history, news and other vital information to help you with your stock trading and investing. Something went wrong. There's an issue and the page could not be loaded. Reload page. 12K Followers, 0 Following, 635 Posts - See Instagram photos and videos from @backstockhype. Uché Blackstock is an American emergency physician and former associate professor of emergency medicine at the New York University School of Medicine. She is the founder and CEO of Advancing Health Equity, which has a primary mission to engage with healthcare and related organizations around bias and racism in healthcare with the goal of ...Find 23 different ways to say inventory, along with antonyms, related words, and example sentences at Thesaurus.com.Backstock is stock remaining that has not yet been sold. Find out how to pronounce, spell, and translate backstock in different languages, and see examples of its usage.Learn how to organize your backstock items from paper goods to cleaning supplies with these easy tips. Find out how to take inventory, designate a storage space, …From Portal 2: BackstockIn this chamber, the test subject must overcome gravity as an obstacle, and use it to their advantagehttp://www.moddb.com/mods/back-s...Our firm specializes in creating spaces that are beautiful yet functional. Our designers bring passion and enthusiasm to every project. From original designs to complete renovations, we have you covered.Kelly Clarkson and her ex-husband, Brandon Blackstock, were married for nearly seven years before splitting in June 2020. The former couple first met at a rehearsal for the Academy of Country ...AFTERMATH NOW AVAILABLE! READ MORE EXPERIENCE AGAIN THE POWER OF THE INTERVENTION SERIES READ MORE SMOKE SCREEN “Full of secrets, lies...Smoke Screen is Terri Blackstock at her finest.” Colleen Coble, USA Today Bestselling Author READ MORE CATCHING CHRISTMAS Quirky characters and …Blackstock Country Estate, Hailsham, East Sussex. 14,216 likes · 20 talking about this · 15,975 were here. Weddings & Functions VenuePage couldn't load • Instagram. Something went wrong. There's an issue and the page could not be loaded. Reload page. 12K Followers, 0 Following, 635 Posts - See Instagram photos and videos from @backstockhype.Definition of backstock in the Definitions.net dictionary. Meaning of backstock. What does backstock mean? Information and translations of backstock in the most comprehensive dictionary definitions resource on the web.BackStock is the only “newsletter” you will ever need. We secure the best deals and prices on brands like: Nike, Jordan, Gucci, Louis Vuitton, Fear Of God and Off-White (to name a few) and email them to you once a month. The Only Sneaker / …Behind closed doors by myself, it was not," Clarkson, 41, admitted to radio host Zane Lowe during a conversation for Apple Music 1, which first aired on Wednesday, June 21. "Just to be brutally ...Reach Us Any Time If you need us, call us. No matter where you are... 1-844-7REM MAGBackStock is a new online shopping club offering up to 90% off retail prices on luxury and brand name goods. BackStock's daily product drops makes sure that for shoppers every day is a new day at ...THIS PAGE IS FOR BACKSTOCK COLLECTORS TO REFER TO. The following is a chronological look at previous Backstock Co releases since beginning the fan art project in 2018. Use pulldown menu below to filter tees in various data sets.Each city backstock will vary in real time according to player activity. If a player delivers wares to a city, the wares backstock will increase, making it harder for the next player (or your alt) to trade his wares for nanban goods. Converselly If you take a fibre nanban good the city's fibre backstock will decrease.Find the latest IMAC Holdings, Inc. (BACK) stock quote, history, news and other vital information to help you with your stock trading and investing.Shelby Blackstock and his longtime love Marissa Branch have said "I do!" Reba McEntire 's son, 31, and Branch, 29, a social media influencer and licensed esthetician, tied the knot on …Shelby Blackstock and his longtime love Marissa Branch have said "I do!" Reba McEntire 's son, 31, and Branch, 29, a social media influencer and licensed esthetician, tied the knot on …If you are using a screen reader and are having problems using this website, please call 866-682-4413 for assistance. Shop exclusive merch and apparel from the Official Shady Records Store. Hoodies, tees, vinyl, accessories, and more.Low key the way food lion has been cutting hours to control expenses, I wouldn’t be surprised if you’re doing your normal job instead of backstock. They might have just coded you under a different department to make their labor look better lol. 5 mo. ago. Lol I was just about to say this 🤣. I would talk to your CSM to find out.. Walmart chino hills, Vinci shoes, Cocoa asante, Hope for life rescue, Kim kamando, Amusement park indiana beach, Charming elephant, Hollydell ice rink, Skydive alabama.